+ ketoanhoaphat.com »  :::: Bollywood Zone » Indian PC Videos
|- Bang Bang (2014) Bollywood Movie All Video Music Album 1080p Blu-ray x264 DTS-HDMA 5.1 By~MaLiK ZEE~


Samsung Galaxy 8

Bang Bang (2014) Bollywood Movie All Video Music Album 1080p Blu-ray x264 DTS-HDMA 5.1 By~MaLiK ZEE~

0 Members and 1 Guest are viewing this topic.

October 12, 2018, 11:00:59 AM
Bang Bang (2014) Bollywood Movie All Video Music Album 1080p Blu-ray AVC x264 DTS-HDMA 5.1 By ~MaLiK ZEE~


~♥ BollyWooD MoviE ♥~
(Bang Bang 2014)

Quote

Specs ♪♫
General
Format                      : Matroska
Format version              : Version 4 / Version 2
File size                   : 3.72 GB
Overall bit rate mode       : Variable
Overall bit rate            : 34.4 Mb/s
Encoded date                : UTC 2018-10-07 10:16:45
Writing application         : mkvmerge v25.0.0 ('Prog Noir') 64-bit
Writing library             : libebml v1.3.6 + libmatroska v1.4.9

♪ Video ♪
ID                          : 1
Format                      : AVC
Format/Info                 : Advanced Video Codec
Format profile              : [email protected]
Format settings             : CABAC / 4 Ref Frames
Format settings, CABAC      : Yes
Format settings, ReFrames   : 4 frames
Codec ID                    : V_MPEG4/ISO/AVC
Bit rate mode               : Variable
Bit rate                    : 28.5 Mb/s
Maximum bit rate            : 33.0 Mb/s
Width                       : 1 920 pixels
Height                      : 1 080 pixels
Display aspect ratio        : 16:9
Frame rate mode             : Constant
Frame rate                  : 24.000 FPS
Standard                    : NTSC
Color space                 : YUV
Chroma subsampling          : 4:2:0
Bit depth                   : 8 bits
Scan type                   : Progressive
Bits/(Pixel*Frame)          : 0.572
Stream size                 : 860 MiB (83%)
Language                    : English
Default                     : Yes
Forced                      : No
Color range                 : Limited
Color primaries             : BT.709
Transfer characteristics    : BT.709
Matrix coefficients         : BT.709

♫ Audio ♫
Audio #1
ID                          : 2
Format                      : DTS
Format/Info                 : Digital Theater Systems
Format profile              : MA / Core
Codec ID                    : A_DTS
Bit rate mode               : Variable / Constant
Bit rate                    : 5 359 kb/s / 1 509 kb/s
Channel(s)                  : 6 channels
Channel positions           : Front: L C R, Side: L R, LFE
Sampling rate               : 48.0 kHz
Frame rate                  : 93.750 FPS (512 SPF)
Bit depth                   : 24 bits
Compression mode            : Lossless / Lossy
Delay relative to video     : 7 ms
Stream size                 : 162 MiB (16%)
Title                       : By~MaLiK ZEE~ 1
Language                    : Hindi
Default                     : Yes
Forced                      : No

Audio #2
ID                          : 3
Format                      : AC-3
Format/Info                 : Audio Coding 3
Codec ID                    : A_AC3
Bit rate mode               : Constant
Bit rate                    : 448 kb/s
Channel(s)                  : 6 channels
Channel positions           : Front: L C R, Side: L R, LFE
Sampling rate               : 48.0 kHz
Frame rate                  : 31.250 FPS (1536 SPF)
Bit depth                   : 16 bits
Compression mode            : Lossy
Delay relative to video     : 28 ms
Stream size                 : 13.5 MiB (1%)
Title                       : By~MaLiK ZEE~ 2
Language                    : Hindi
Service kind                : Complete Main
Default                     : No
Forced                      : No

English & Chinese Subtitles : Yes
Chapters : Yes

Ripped By ~MaLiK ZEE~

 :ss:


















 :download:

Google Drive

Quote
01-Tu Meri [By ~MaLiK ZEE~]

02-Uff [By ~MaLiK ZEE~]

03-Meherbaan [By ~MaLiK ZEE~]

04-Bang Bang End Roll [By ~MaLiK ZEE~]





Share this topic on FacebookShare this topic on GoogleShare this topic on MySpaceShare this topic on TwitterShare this topic on Yahoo



Thanks given by:


October 12, 2018, 06:24:40 PM
Reply #1
  • Global Mod (Inactive)
  • Elite Forces
  • *****
  • Thank You: 485
  • Reputation: 147
  • Activity:
    2.4%
  • Posts: 1374
  • Topics: 1069
  • Join Date: Dec 2012
  • king of old movies

Tags:
 

Related Topics





Back to top