+ ketoanhoaphat.com »  :::: Dubbed Zone (Dubbed English in Hindi) » TV Shows (Dubbed in Hindi)
|- Game of Thrones.S02E01.720p.Dual.Audio.Hindi.English.MSubs.-.Hon3yHD


10% SBI and 10% Discount

Game of Thrones.S02E01.720p.Dual.Audio.Hindi.English.MSubs.-.Hon3yHD

0 Members and 1 Guest are viewing this topic.

September 02, 2018, 03:47:42 PM
  • Legend Member
  • ****
  • Topic Author
  • Thank You: 1316
  • Reputation: 510
  • Activity:
    100%
  • Country: pk
  • Posts: 1553
  • Topics: 865
  • Join Date: Mar 2015
  • ShareSpark Member
Game of Thrones.S02E01.720p.Dual.Audio.Hindi.English.MSubs.-.Hon3yHD
















Format : Matroska
Format version : Version 4 / Version 2
File size : 451 MiB
Duration : 52 min 41 s
Overall bit rate : 1 197 kb/s
Movie name : Game of Thrones.S02E01.720p.Dual.Audio.Hindi.English.MSubs.-.Hon3yHD
         
Video
ID : 1
Format : AVC
Format/Info : Advanced Video Codec
Format profile : [email protected]
Format settings : CABAC / 8 Ref Frames
Format settings, CABAC : Yes
Format settings, RefFrames : 8 frames
Codec ID : V_MPEG4/ISO/AVC
Duration : 52 min 41 s
Bit rate : 1 000 kb/s
Width : 1 280 pixels
Height : 720 pixels
Display aspect ratio : 16:9
Frame rate mode : Constant
Frame rate : 23.976 (24000/1001) FPS


Audio #1
ID : 2
Format : AAC
Format/Info : Advanced Audio Codec
Format profile : LC
Codec ID : A_AAC-2
Duration : 52 min 36 s
Bit rate : 96.0 kb/s
Channel(s) : 2 channels
Channel positions : Front: L R
Sampling rate : 48.0 kHz
Frame rate : 46.875 FPS (1024 SPF)
Compression mode : Lossy
Delay relative to video : -12 ms
Stream size : 36.1 MiB (8%)
Title : Hon3yHD.to
Language : Hindi

Audio #2
ID : 3
Format : AAC
Format/Info : Advanced Audio Codec
Format profile : LC
Codec ID : A_AAC-2
Duration : 52 min 41 s
Bit rate : 96.0 kb/s
Channel(s) : 2 channels
Channel positions : Front: L R
Sampling rate : 48.0 kHz
Frame rate : 46.875 FPS (1024 SPF)
Compression mode : Lossy
Delay relative to video : -21 ms
Stream size : 36.3 MiB (8%)
Title : Hon3yHD.to
Language : English
Default : No

Text #1
ID : 4
Format : UTF-8
Codec ID : S_TEXT/UTF8
Codec ID/Info : UTF-8 Plain Text
Duration : 48 min 52 s
Bit rate : 70 b/s
Count of elements : 740
Stream size : 25.3 KiB (0%)
Title : English







 :download:























Share this topic on FacebookShare this topic on GoogleShare this topic on MySpaceShare this topic on TwitterShare this topic on Yahoo



Thanks given by:


Tags:
 

Related Topics





Back to top