+ ketoanhoaphat.com »  :::: Dubbed Zone (Dubbed English in Hindi) » English Movies Dubbed in Hindi » 3D Movies
|- Transformers : The Last Knight (2017) 1080P 3D-HSBS [Hin 5.1 - Eng 2.0] By [--K~3D--] [2.5GB]

Weekend Pay And Play 50% Off

Transformers : The Last Knight (2017) 1080P 3D-HSBS [Hin 5.1 - Eng 2.0] By [--K~3D--] [2.5GB]

0 Members and 1 Guest are viewing this topic.

October 19, 2017, 01:11:00 PM
  • ♫♫♣ B૦ՐՈ T૦ H૯Նƿ ♣♫♫
  • Global Moderator
  • Legend Member
  • *****
  • Topic Author
  • Thank You: 1098
  • Reputation: 725
  • Activity:
    0%
  • Country: dk
  • Posts: 2712
  • Topics: 1192
  • Join Date: Jan 2013
  • ♠§§ Dσп'т Tαʟκ Jυƨт Acт §§ Dσп'т Sαч Jυƨт Sнσш §§♠
:title:
Transformers : The Last Knight (2017) 1080P 3D-HSBS Dual Audio [Hin 5.1 - Eng 2.0] By [--K~3D--]





Hindi Audio - Mr.Rajput


:info:
General
Format :   Matroska
Format version :   Version 4 / Version 2
File size :   2.47 GiB
Duration :   2 h 34 min
Overall bit rate :   2 284 kb/s
Encoded date :   UTC 2017-10-19 07:23:07
Writing application :   mkvmerge v13.0.0 ('The Juggler') 32bit
Writing library :   libebml v1.3.4 + libmatroska v1.4.5

Video
ID :   1
Format :   AVC
Format/Info :   Advanced Video Codec
Format profile :   High@L4.1
Format settings, CABAC :   Yes
Format settings, RefFrames :   4 frames
Codec ID :   V_MPEG4/ISO/AVC
Duration :   2 h 34 min
Bit rate :   1 999 kb/s
Width :   1 920 pixels
Height :   1 080 pixels
Display aspect ratio :   16:9
Frame rate mode :   Constant
Frame rate :   23.976 (24000/1001) FPS
Color space :   YUV
Chroma subsampling :   4:2:0
Bit depth :   8 bits
Scan type :   Progressive
Bits/(Pixel*Frame) :   0.040
Stream size :   2.16 GiB (87%)
Writing library :   x264 core 148 r2744 b97ae06
Language :   English
Default :   Yes
Forced :   No

Audio #1
ID :   2
Format :   AAC
Format/Info :   Advanced Audio Codec
Format profile :   Main
Codec ID :   A_AAC
Duration :   2 h 34 min
Bit rate :   192 kb/s
Channel(s) :   6 channels
Channel positions :   Front: L C R, Side: L R, LFE
Sampling rate :   48.0 kHz
Frame rate :   46.875 FPS (1024 SPF)
Compression mode :   Lossy
Delay relative to video :   11 ms
Stream size :   210 MiB (8%)
Language :   Hindi
Default :   Yes
Forced :   No

Audio #2
ID :   3
Format :   AAC
Format/Info :   Advanced Audio Codec
Format profile :   LC
Codec ID :   A_AAC
Duration :   2 h 34 min
Bit rate :   93.3 kb/s
Channel(s) :   2 channels
Channel positions :   Front: L R
Sampling rate :   48.0 kHz
Frame rate :   46.875 FPS (1024 SPF)
Compression mode :   Lossy
Stream size :   103 MiB (4%)
Title :   ||K4Krish|| [2.0]
Language :   English
Default :   No
Forced :   No

:ss:


:download:



Share this topic on FacebookShare this topic on GoogleShare this topic on MySpaceShare this topic on TwitterShare this topic on Yahoo

« Last Edit: October 19, 2017, 01:36:25 PM by ♥[--K4Krish--]♥ »



If U like any post, then say thanks 2 d uploader by posting in his topic, adding thanks & reputes 2 him.:)

Thanks given by:


Tags:
 

Related Topics




Back to top